Odpowiedz
 
Narzędzia wątku
Stare 02-07-09, 18:23   #1
barbii0
Member
 
Dołączył: Mar 2008
Posty: 35
Siła reputacji: 0 barbii0
Domyślnie Nieko?cz?ca si? opowie??/ Neverending Story(1984)

Nieko?cz?ca si? opowie?? (Avi)

[center:0fd05893bb][/center:0fd05893bb]
Cytat:
opis:
Ma?y ch?opiec po ?mierci matki zamyka si? w sobie.
Zaczyna mie? k?opoty w szkole, nie potrafi znale?? wsplnego j?zyka
ze swoim ojcem. Pewnego dnia, uciekaj?c przed prze?laduj?cymi go starszymi ch?opcami,
Bastian trafia do pewnej ksi?garni, sk?d wykrada (w?a?ciwie to jedynie po?ycza tajemnicz?
ksi??k?, dzi?ki ktrej prze?yje najwspanialsz? przygod? w swoim ?yciu. Nie jest to bowiem
zwyk?a ksi??ka, ale pe?na magii brama do innego ?wiata. Dzi?ki niej Bastian przenosi si?
w krain? wyobra?ni, ktrej w?a?nie grozi zag?ada...
Ma?y ch?opiec oka?e si? wkrtce jedyn? osob?, ktra mo?e uratowa? pi?kn? ksi??niczk?...
Wspania?a ba?? nie tylko dla dzieci, opowiadaj?ca o wra?liwo?ci na pi?kno, pot?dze
wyobra?ni i sile marze?, a wi?c o tym, co ka?demu cz?owiekowi jest witalnie niezb?dne,
by cieszy? si? ?yciem.

Barret Oliver: Bastian
Noah Hathaway:Atreyu
Tami Stronach:Cesarzowa
Alan Oppenheimer:smok Falkor - g?os
Gerald McRaneyjciec
Sydney Bromley:Engywook
Deep Roy:Teeny Weeny
Thomas Hill:Koreander
Tilo Prckner
Nicholas Gilbert
Patricia Hayes:Urgl
Drum Garrett:?obuziak
Darryl Cooksey:Ch?opiec dr?cz?cy Bastiana
Moses Gunn:Cairon
Cytat:
Linki padly
barbii0 jest nieaktywny   Odpowiedz z cytatem
Stare 27-06-10, 22:39   #2
SABBATH
Senior Member
 
Dołączył: May 2008
Przegląda: ************** :-)
Posty: 6,700
Siła reputacji: 0 SABBATH
Domyślnie

Cytat:
Linki padly
SABBATH jest nieaktywny   Odpowiedz z cytatem
Stare 08-01-12, 19:57   #3
SABBATH
Senior Member
 
Dołączył: May 2008
Przegląda: ************** :-)
Posty: 6,700
Siła reputacji: 0 SABBATH
Domyślnie

Nieko?cz?ca si? opowie?? / Neverending Story, The (1984) *DVDRip* Eng / PL
Cytat:
Video
ID : 0
Format : MPEG-4 Visual
Format profile : AdvancedSimple@L5
Format settings, BVOP : Yes
Format settings, QPel : No
Format settings, GMC : No warppoints
Format settings, Matrix : Custom
Codec ID : XVID
Codec ID/Hint : XviD
Duration : 1h 30mn
Bit rate : 967 Kbps
Width : 640 pixels
Height : 272 pixels
Display aspect ratio : 2.35:1
Frame rate : 25.000 fps
Resolution : 24 bits
Colorimetry : 4:2:0
Scan type : Progressive
Bits/(Pixel*Frame) : 0.222
Stream size : 623 MiB (88%)
Writing library : XviD 1.2.0.dev47 (UTC 2006-11-01)

Audio
ID : 1
Format : MPEG Audio
Format version : Version 1
Format profile : Layer 3
Codec ID : 55
Codec ID/Hint : MP3
Duration : 1h 30mn
Bit rate mode : Variable
Bit rate : 116 Kbps
Nominal bit rate : 128 Kbps
Channel(s) : 2 channels
Sampling rate : 48.0 KHz
Resolution : 16 bits
Stream size : 74.9 MiB (11%)
Alignment : Aligned on interleaves
Interleave, duration : 24 ms (0.60 video frame)
Interleave, preload duration : 526 ms
Writing library : LAME3.97
Encoding settings : -m j -V 4 -q 2 -lowpass 17 --abr 128
Language : Polish
http://rapidshare.com/files/27726501...IESC.part1.rar
http://rapidshare.com/files/27727020...IESC.part2.rar
http://rapidshare.com/files/27742809...IESC.part3.rar
http://rapidshare.com/files/27743235...IESC.part4.rar
SABBATH jest nieaktywny   Odpowiedz z cytatem
Odpowiedz

Narzędzia wątku

Uprawnienia umieszczania postów
Nie możesz zakładać nowych tematów
Nie możesz pisać wiadomości
Nie możesz dodawać załączników
Nie możesz edytować swoich postów

BB Code jest Aktywny(e)
EmotikonyAktywny(e)
[IMG] kod jest Aktywny(e)
Kod HTML jest wyłączony
Trackbacks are wyłączony
Pingbacks are wyłączony
Refbacks are wyłączony


Podobne wątki
Wątek Autor wątku Forum Odpowiedzi Ostatni post / autor
New Police Story/Nowa Policyjna Opowie?? (2004) pawiu Filmy polskie i zagraniczne 1 21-08-10 17:16
Sma?alnia story (1984) SABBATH Filmy polskie i zagraniczne 0 13-07-10 08:08
Rok 1984 / 1984 / Nineteen Eighty-Four (1984) GHunter Filmy polskie i zagraniczne 0 04-12-09 14:51
Nieko?cz?ca si? opowie?? II: Nast?pny rozdzia? / The NeverEn barbii0 Anime / Manga / Bajki 0 24-06-09 06:38
Q-Dance The Neverending Story (2008) Will89 Albumy 0 21-02-09 13:39


Czasy w strefie GMT +1. Teraz jest 23:54.


Powered by vBulletin®
Copyright © Warezisko.net 2006 - 2021